Photoshop CS5 Extended One-on-One: 3D Fundamentals

Photoshop CS5 Extended One-on-One: 3D Fundamentals

Photoshop CS5 Extended One-on-One: 3D Fundamentals
WEBRip | MOV + Project files | English | 960 x 540 | AVC ~86.2 kbps | 15 fps
AAC | 96.0 Kbps | 48.0 KHz | 2 channels | 05:17:47 | 2.06 GB
Genre: eLearning Video / Adobe Photoshop

In the first installment of his new Photoshop Extended One-on-One series, Deke McClelland covers the basic techniques for working with 3D in Photoshop, showing how to create textured type and drawing objects that can be manipulated in 3D space. The course covers creating 3D type with Repoussé; moving, scaling, and rotating objects along the X, Y, and Z axes; applying materials to create believable textures; adding realism with lighting, shadows, and contrast; and more. Exercise files are included with the course.
Topics include:

* Creating basic 3D shapes
* Converting 2D art to 3D
* Using the Camera Rotate tool
* Cutting holes from shapes
* Rotating and positioning by the numbers
* Importing a model from Google SketchUp
* Assigning materials and lights
* Setting orientation and position
* Designing a custom bump map
* Modifying the attributes of a material
* Adding a person to a 3D scene

content
*Introduction
Welcome to One-on-One
Making Photoshop your default image editor on a PC
Making Photoshop your default image editor on a Mac
Installing the dekeKeys keyboard shortcuts
Remapping Mac OS shortcuts
Establishing the best color settings
Constructing the ideal workspace
Adjusting the interface settings
Establishing the best preference settings
* What Photoshop CS5 Extended Can Do
Making Saturn
Creating a basic 3D shape
Mapping texture onto a 3D shape
Editing a diffuse texture
Converting 2D art to 3D
Defining an opacity map
Merging two 3D layers into one
Lighting a scene
Troubleshooting and ray tracing
Fixing ambient light and strange rings
Traditional 2D edits in a 3D world
Using the Camera Rotate tool
* Creating 3D Type with Repoussé
Extruding type
The special considerations of 3D type
Using the Repoussé dialog box
Assign textures to surfaces
Using the Ground Plane Shadow Catcher
Adjusting and loading lights
Adding a custom-contoured bevel
The Repoussé presets
* Drawing 3D Objects with Repoussé
Turning any 2D layer into 3D
Creating the base shape layers
Cutting holes from shapes
From circles to "near spheres" in Repoussé
Adding an active constraint
Converting constraints into holes
Merge, texture, gloss, and shine
Fixing texture and bevel
Editing an internal constraint
Rotating and positioning by the numbers
Sharpening and introducing a background
Enhancing the colors of a 3D scene
* Mastering the Tools: Object, Camera, and Mesh
Navigating in 3D space
Importing a model from Google SketchUp
3D explained: XYZ position and orientation
Adjusting orientation by the numbers
Feeling your way through rotate and roll
3D movement: Drag, slide, pan, and walk
Assigning materials and lights
Editing and replacing a model
Repositioning independent meshes
Finishing the giant marble chair
* Designing and Applying Materials
The stuff of the real world
Making a spherical panorama
Setting orientation and position
Moving a sphere into a panorama
Adding and positioning a point light
Modifying the attributes of a material
Designing a custom bump map
Adding precisely symmetrical spheres
Designing and saving a custom material
Replacing an environment map
Resolving seams in a 3D panorama
Masking aberrant shadows and adding contrast
Adding a person to a 3D scene
* Upsampling 3D Artwork
Working low-res, rendering high-res
Upsampling 3D objects
Real-world upsampling
Touching up 3D shadows
*Conclusion
Until next time


   MediaInfo:

    
        General
Complete name                            : 77855_03_01_SC12_createbaseshapes.mov
Format                                   : QuickTime
Format/Info                              : Original Apple specifications
File size                                : 7.00 MiB
Duration                                 : 4mn 55s
Overall bit rate mode                    : Variable
Overall bit rate                         : 199 Kbps
Encoded date                             : UTC 2011-03-28 19:29:00
Tagged date                              : UTC 2011-03-28 19:29:00
Writing library                          : Apple QuickTime
Copyright                                : lynda.com

Video
ID                                       : 1
Format                                   : AVC
Format/Info                              : Advanced Video Codec
Format profile                           : Main@L3.1
Format settings, CABAC                   : Yes
Format settings, ReFrames                : 6 frames
Codec ID                                 : avc1
Codec ID/Info                            : Advanced Video Coding
Duration                                 : 4mn 55s
Source duration                          : 4mn 55s
Bit rate                                 : 86.2 Kbps
Width                                    : 960 pixels
Height                                   : 540 pixels
Display aspect ratio                     : 16:9
Frame rate mode                          : Constant
Frame rate                               : 15.000 fps
Standard                                 : Component
Color space                              : YUV
Chroma subsampling                       : 4:2:0
Bit depth                                : 8 bits
Scan type                                : Progressive
Bits/(Pixel*Frame)                       : 0.011
Stream size                              : 3.04 MiB (43%)
Source stream size                       : 3.54 MiB (51%)
Language                                 : English
Encoded date                             : UTC 2011-03-28 19:29:00
Tagged date                                                                                                                                                                                                                                                                : UTC 2011-03-28 19:29:00
Color primaries                          : BT.709-2, SMPTE 274M, SMPTE 296M
Transfer characteristics                 : BT.709-2, SMPTE 170M, SMPTE 274M, SMPTE 293M, SMPTE 296M
Matrix coefficients                      : BT.470-4 System B, BT.470-4 System G, BT.601-4, SMPTE 170M, SMPTE 293M
mdhd_Duration                            : 295267

Audio
ID                                       : 2
Format                                   : AAC
Format/Info                              : Advanced Audio Codec
Format profile                           : LC
Codec ID                                 : 40
Duration                                 : 4mn 55s
Bit rate mode                            : Variable
Bit rate                                 : 96.0 Kbps
Maximum bit rate                         : 107 Kbps
Channel(s)                               : 2 channels
Channel positions                        : Front: L R
Sampling rate                            : 48.0 KHz
Compression mode                         : Lossy
Stream size                              : 3.37 MiB (48%)
Language                                 : English
Encoded date                             : UTC 2011-03-28 19:29:00
Tagged date                              : UTC 2011-03-28 19:29:00 


Screenshots

Photoshop CS5 Extended One-on-One: 3D Fundamentals


Photoshop CS5 Extended One-on-One: 3D Fundamentals


Photoshop CS5 Extended One-on-One: 3D Fundamentals


Photoshop CS5 Extended One-on-One: 3D Fundamentals


Photoshop CS5 Extended One-on-One: 3D Fundamentals


Photoshop CS5 Extended One-on-One: 3D Fundamentals




Alternate Link for Photoshop CS5 Extended One-on-One: 3D Fundamentals.rar When above links are dead
 kbps

Hello Respective Visitor!

Please Login or Create a FREE Account to gain accesss to hidden contents.

Information

Would you like to leave your comment? Please Login to your account to leave comments. Don't have an account? You can create a free account now.