Skydive University - Learning to Freefly: SITFLY

http://ultraimg.com/images/2016/07/18/PHQyOkrNU1468837998626.jpg
Skydive University - Learning to Freefly: SITFLY
DVD5 | English | VIDEO_TS | 720 x 480 | MPEG2 ~5058 kbps | 29.970 fps
PCM | 1536 Kbps | 48.0 KHz | 2 channels | ~90 min | 4.2 GB
Subs: English, German, Spanish, French, Russian, Italian, Japanese, Portuguese
Genre: eLearning Video / FreeFly, SkyDive, Parachuting

Learning to Sitfly" is the second in a series of six freefly training DVD's. It is the natural progression in freefly training and offers the essentials of freeflying with an excellent starting point for beginners or fine tuning for the experienced. It has subtitles in 8 different languages and provides specific and easy to understand instructional training with 3D animated virtual training, combined with wind tunnel and freefall footage to provide the ultimate in teaching techniques. It is excellent training for any skill level.
also other 3 DVDs of this series:

MediaInfo:

General
Complete name : VTS_17_2.VOB
Format : MPEG-PS
File size : 1 024 MiB
Duration : 21mn 16s
Overall bit rate mode : Variable
Overall bit rate : 6 728 Kbps
Video
ID : 224 (0xE0)
Format : MPEG Video
Format version : Version 2
Format profile : MainMain
Format settings, BVOP : Yes
Format settings, Matrix : Custom
Format settings, GOP : M=3, N=15
Duration : 21mn 16s
Bit rate mode : Variable
Bit rate : 5 058 Kbps
Maximum bit rate : 7 500 Kbps
Width : 720 pixels
Height : 480 pixels
Display aspect ratio : 4:3
Frame rate : 29.970 fps
Standard : NTSC
Color space : YUV
Chroma subsampling : 4:2:0
Bit depth : 8 bits
Scan type : Interlaced
Scan order : Bottom Field First
Compression mode : Lossy
Bits/(Pixel*Frame) : 0.488
Stream size : 770 MiB (75%)
Color primaries : SMPTE 170M
Transfer characteristics : SMPTE 170M
Matrix coefficients : SMPTE 170M
Audio
ID : 189 (0xBD)-160 (0xA0)
Format : PCM
Format settings, Endianness : Big
Format settings, Sign : Signed
Muxing mode : DVD-Video
Duration : 21mn 16s
Bit rate mode : Constant
Bit rate : 1 536 Kbps
Channel(s) : 2 channels
Sampling rate : 48.0 KHz
Bit depth : 16 bits
Delay relative to video : -421ms
Stream size : 234 MiB (23%)
Text #1
ID : 189 (0xBD)-32 (0x20)
Format : RLE
Format/Info : Run-length encoding
Muxing mode : DVD-Video
Delay relative to video : 5s 472ms
Text #2
ID : 189 (0xBD)-33 (0x21)
Format : RLE
Format/Info : Run-length encoding
Muxing mode : DVD-Video
Delay relative to video : 5s 572ms
Text #3
ID : 189 (0xBD)-34 (0x22)
Format : RLE
Format/Info : Run-length encoding
Muxing mode : DVD-Video
Delay relative to video : 2s 102ms
Text #4
ID : 189 (0xBD)-35 (0x23)
Format : RLE
Format/Info : Run-length encoding
Muxing mode : DVD-Video
Delay relative to video : 334ms
Text #5
ID : 189 (0xBD)-36 (0x24)
Format : RLE
Format/Info : Run-length encoding
Muxing mode : DVD-Video
Delay relative to video : 1s 802ms
Text #6
ID : 189 (0xBD)-37 (0x25)
Format : RLE
Format/Info : Run-length encoding
Muxing mode : DVD-Video
Delay relative to video : 534ms
Text #7
ID : 189 (0xBD)-38 (0x26)
Format : RLE
Format/Info : Run-length encoding
Muxing mode : DVD-Video
Delay relative to video : 3s 504ms
Text #8
ID : 189 (0xBD)-39 (0x27)
Format : RLE
Format/Info : Run-length encoding
Muxing mode : DVD-Video
Delay relative to video : 2s 670ms
Menu
Screenshots

http://ultraimg.com/images/2016/07/18/Ynb18asj1468837999071.jpg

http://ultraimg.com/images/2016/07/18/tZPwzY1468837999496.jpg

http://ultraimg.com/images/2016/07/18/K6OP9rP1468837999915.jpg

http://ultraimg.com/images/2016/07/18/ElOJM1468838000342.jpg

http://ultraimg.com/images/2016/07/18/aRw5oK8Bg1468838000843.jpg

http://ultraimg.com/images/2016/07/18/mh2MGNJY1468838001380.jpg

http://ultraimg.com/images/2016/07/18/tPvTA1468838002143.jpg

http://ultraimg.com/images/2016/07/18/25qVnAKZz1468838003015.jpg





Download link:
Links are Interchangeable - Single Extraction - Premium is support resumable

Alternate Link for Skydive University - Learning to Freefly: SITFLY.rar When above links are dead
 kbps

Hello Respective Visitor!

Please Login or Create a FREE Account to gain accesss to hidden contents.

Information

Would you like to leave your comment? Please Login to your account to leave comments. Don't have an account? You can create a free account now.